<?xml version="1.0" standalone="no"?>
<!DOCTYPE svg PUBLIC "-//W3C//DTD SVG 1.1//EN" "http://www.w3.org/Graphics/SVG/1.1/DTD/svg11.dtd" >
<svg xmlns="http://www.w3.org/2000/svg">
<metadata>
Created by FontForge 20120731 at Fri Jun  3 17:18:32 2016
 By admin
</metadata>
<defs>
<font id="FlowIconFont" horiz-adv-x="1024" >
  <font-face 
    font-family="FlowIconFont"
    font-weight="500"
    font-stretch="normal"
    units-per-em="1024"
    panose-1="2 0 6 3 0 0 0 0 0 0"
    ascent="896"
    descent="-128"
    x-height="792"
    bbox="0 -128.25 1024 896.376"
    underline-thickness="50"
    underline-position="-100"
    unicode-range="U+0078-E610"
  />
<missing-glyph horiz-adv-x="374" 
d="M34 0v682h272v-682h-272zM68 34h204v614h-204v-614z" />
    <glyph glyph-name=".notdef" horiz-adv-x="374" 
d="M34 0v682h272v-682h-272zM68 34h204v614h-204v-614z" />
    <glyph glyph-name=".null" horiz-adv-x="0" 
 />
    <glyph glyph-name="nonmarkingreturn" horiz-adv-x="341" 
 />
    <glyph glyph-name="x" unicode="x" horiz-adv-x="1001" 
d="M281 543q-27 -1 -53 -1h-83q-18 0 -36.5 -6t-32.5 -18.5t-23 -32t-9 -45.5v-76h912v41q0 16 -0.5 30t-0.5 18q0 13 -5 29t-17 29.5t-31.5 22.5t-49.5 9h-133v-97h-438v97zM955 310v-52q0 -23 0.5 -52t0.5 -58t-10.5 -47.5t-26 -30t-33 -16t-31.5 -4.5q-14 -1 -29.5 -0.5
t-29.5 0.5h-32l-45 128h-439l-44 -128h-29h-34q-20 0 -45 1q-25 0 -41 9.5t-25.5 23t-13.5 29.5t-4 30v167h911zM163 247q-12 0 -21 -8.5t-9 -21.5t9 -21.5t21 -8.5q13 0 22 8.5t9 21.5t-9 21.5t-22 8.5zM316 123q-8 -26 -14 -48q-5 -19 -10.5 -37t-7.5 -25t-3 -15t1 -14.5
t9.5 -10.5t21.5 -4h37h67h81h80h64h36q23 0 34 12t2 38q-5 13 -9.5 30.5t-9.5 34.5q-5 19 -11 39h-368zM336 498v228q0 11 2.5 23t10 21.5t20.5 15.5t34 6h188q31 0 51.5 -14.5t20.5 -52.5v-227h-327z" />
    <glyph glyph-name="uniE600" unicode="&#xe600;" 
d="M512 832q-91 0 -174 -35.5t-143 -95.5t-95.5 -143t-35.5 -174t35.5 -174t95.5 -143t143 -95.5t174 -35.5t174 35.5t143 95.5t95.5 143t35.5 174t-35.5 174t-95.5 143t-143 95.5t-174 35.5zM714 371l-321 -194q-8 -4 -15 0.5t-7 13.5v386q0 9 7 13.5t15 0.5l321 -194
q7 -4 7 -13t-7 -13z" />
    <glyph glyph-name="uniE601" unicode="&#xe601;" 
d="M512 726zM434 726q0 32 23 55t55 23t54.5 -23t22.5 -55t-22.5 -54.5t-54.5 -22.5t-55 22.5t-23 54.5zM665 408h-76v61v41q0 34 -22.5 58t-54.5 24t-54.5 -24t-22.5 -58v-41v-61h-77v-34h123v-410h62v410h122v34zM785 726zM708 726q0 32 22.5 55t54.5 23t55 -23t23 -55
t-23 -54.5t-55 -22.5t-54.5 22.5t-22.5 54.5zM862 469v41q0 34 -22.5 58t-54.5 24t-54.5 -24t-22.5 -58v-41v-82v-53h-43h-59v-83v-274h-47v-13h37h69v13v245h43h155v112v135h-1zM239 726zM162 726q0 32 22.5 55t54.5 23t55 -23t23 -55t-23 -54.5t-55 -22.5t-54.5 22.5
t-22.5 54.5zM418 251v83h-59h-43v53v82v41q0 34 -22.5 58t-54 24t-54 -24t-22.5 -58v-41h-1v-135v-112h154h43v-245v-13h70h37v13h-48v274z" />
    <glyph glyph-name="uniE602" unicode="&#xe602;" 
d="M867 -65h-710l-5 2q-62 11 -83 70q0 1 -5 21v710l2 5q12 67 79 85l12 3h610q31 -7 64 -38q45 -44 88 -88q34 -35 41 -66v-611l-2 -5q-12 -67 -79 -85q-2 0 -12 -3zM512 -30h305q40 0 40 39v335q0 39 -39 39h-612q-39 0 -39 -38v-336q0 -8 1 -12q7 -27 39 -27h305z
M494 486h218q41 0 41 41v229q0 41 -41 41h-435q-41 0 -41 -41v-229q0 -41 41 -41h217zM582 762h101v-240h-101v240z" />
    <glyph glyph-name="uniE603" unicode="&#xe603;" 
d="M618 464q65 27 135 27h7h6q34 85 17 184q-19 109 -109 172.5t-198 44.5q-54 -10 -101.5 -35t-82 -61.5t-50 -85t-6.5 -101.5q10 -60 39 -116l-262 -377q-7 -10 -10.5 -26.5t-1.5 -29.5l11 -64q-1 7 -2 15l-1 7v-2q10 -43 15 -43l86 -1q12 2 26 11.5t21 19.5l103 162l1 1
l90 -7l121 189h1q17 23 36 42q47 48 109 74zM70 76l-13 -5l1 14l251 363l15 -14zM450 745q30 43 81 52t93.5 -21t51.5 -81.5t-21 -94.5q-7 -10 -15 -16.5t-14.5 -9.5t-16 -1.5t-15.5 3t-18 8.5t-17.5 11t-19.5 14t-20 15q-7 4 -21 14t-20 14t-16 12.5t-13.5 14t-8.5 14
t-4 15.5t4 17t10 20zM749 421q-114 0 -194.5 -80t-80.5 -194t80.5 -194.5t194.5 -80.5t194.5 80.5t80.5 194.5t-80.5 194t-194.5 80zM908 34q0 -50 -152 -50q-154 0 -154 50v11q0 21 30.5 42t70.5 36q3 1 6 4t6 10.5t-2 18.5q-18 18 -29 45t-11 54q0 41 23.5 64t58.5 23
t59 -23t24 -64q0 -57 -41 -99h1q-6 -12 -3 -20t5.5 -10.5t4.5 -2.5q41 -14 72 -35t31 -43v-11z" />
    <glyph glyph-name="uniE604" unicode="&#xe604;" 
d="M623 611h-175v142l-384 -192l384 -192v142h189q225 0 225 -188q0 -195 -232 -195h-442v-100h446q317 0 317 285q0 298 -328 298z" />
    <glyph glyph-name="uniE605" unicode="&#xe605;" 
d="M672 357q-1 25 -20 42t-46 17q-26 -1 -43 -20q-3 -3 -5 -7l-84 8q-3 23 -21 39l36 63q6 -1 13 -1q25 0 43.5 18.5t18.5 44t-18.5 44t-44 18.5t-44 -18.5t-18.5 -44.5q0 -25 18 -43l-36 -66q-6 1 -12 1h-1q-25 -1 -42.5 -20.5t-16.5 -44.5q2 -25 20 -42.5t43 -17.5h3
q26 2 43 21q6 6 9 13l80 -7v-3q1 -19 12 -34l-30 -54q-2 1 -5 1q-26 0 -44 -18.5t-18 -44.5t18 -44t44 -18t44.5 18t18.5 44q0 30 -24 49l25 45q10 -4 21 -4h4q26 2 43 21t16 45zM502 587q11 0 18.5 -8t7.5 -19t-7.5 -18.5t-18.5 -7.5t-19 7.5t-8 18.5t8 19t19 8zM431.5 372
q-7.5 -8 -18.5 -9h-1q-11 0 -18.5 7.5t-8.5 17.5q0 11 7 19.5t20 8.5q10 0 18 -7t8 -18q1 -11 -6.5 -19zM524 175q-11 0 -19 7.5t-8 18.5t8 19t19 8t19 -8t8 -19t-8 -18.5t-19 -7.5zM629.5 336q-7.5 -8 -18.5 -9h-2q-10 0 -18 7.5t-8 17.5q-1 11 6.5 19.5t19.5 8.5
q11 0 18.5 -7t8.5 -18t-6.5 -19z" />
    <glyph glyph-name="uniE606" unicode="&#xe606;" 
d="M939 99l-226 88q-44 17 -60 33t-1 68q3 9 24 40.5t43 66.5t40.5 83.5t18.5 88.5q0 89 -36 165t-97.5 120t-134 44t-134 -44t-97 -120t-35.5 -165q0 -39 17 -87t35.5 -81t40.5 -67t23 -37q9 -18 8.5 -41t-8.5 -32q-7 -7 -24.5 -15.5t-32.5 -13.5l-14 -4l-204 -91
q-36 -13 -60 -44.5t-24 -68.5v-24q0 -40 28.5 -64.5t71.5 -24.5h341h117h364q43 0 71.5 24.5t28.5 64.5v24q0 37 -24 69t-60 45zM939 99z" />
    <glyph glyph-name="uniE607" unicode="&#xe607;" 
d="M128 0h640v-64h-640v64zM64 704h64v-768h-64v768zM704 832h-448q-18 0 -31 -7t-19 -16.5t-9.5 -19t-4.5 -16.5v-7v-638q0 -28 16 -44t32 -18l16 -2h576q28 0 44 16t18 32l2 16v512zM320 384h448v-64h-448v64zM320 512h448v-64h-448v64zM320 256h448v-64h-448v64zM704 640
v128l128 -128h-128z" />
    <glyph glyph-name="uniE608" unicode="&#xe608;" 
d="M241 61v771l542 -548h-271l153 -251l-80 -97l-164 281z" />
    <glyph glyph-name="uniE609" unicode="&#xe609;" 
d="M211 595q-50 0 -85.5 -35.5t-35.5 -85.5v-482h181v362q0 84 56 152q-11 39 -43 64t-73 25zM813 595q-41 0 -73 -25t-43 -64q56 -68 56 -152v-362h181v482q0 50 -35.5 85.5t-85.5 35.5zM512 535q50 0 85 35t35 85t-35 85.5t-85 35.5t-85 -35.5t-35 -85.5t35 -85t85 -35z
M211 896q-50 0 -85.5 -35.5t-35.5 -85t35.5 -85t85.5 -35.5q33 0 62 18q5 76 54 134q-11 39 -43 64t-73 25zM813 655q50 0 85.5 35.5t35.5 85t-35.5 85t-85.5 35.5q-41 0 -73 -25t-43 -64q49 -58 54 -134q29 -18 62 -18zM512 474q-75 0 -128 -52.5t-53 -127.5v-422h362v422
q0 75 -53 127.5t-128 52.5z" />
    <glyph glyph-name="uniE60A" unicode="&#xe60a;" 
d="M427 611zM330 611.5q0 40.5 28.5 69t69 28.5t69 -28.5t28.5 -69t-28.5 -69t-69 -28.5t-69 28.5t-28.5 69zM487 479q38 18 61.5 53.5t23.5 78.5q0 61 -42.5 103.5t-102.5 42.5t-102.5 -42.5t-42.5 -103.5q0 -43 23.5 -78.5t62.5 -53.5q32 9 59 9t60 -9zM472 271h-236
q9 72 63.5 120.5t127.5 48.5q75 0 130 -51q23 16 32 20l10 5q-47 48 -112 65q-29 -13 -59.5 -13t-59.5 13q-79 -20 -130 -84.5t-51 -147.5q0 -10 7 -17t17 -7l229 -4l3 5t7.5 12t9 14.5t8 13.5t4.5 7zM487 479q-33 9 -60 9t-59 -9q29 -13 59.5 -13t59.5 13zM770 183
q-24 11 -48.5 2.5t-36 -32t-3 -48t32.5 -36.5q5 -2 17 -4q21 -3 39.5 6t27.5 27q8 19 5 38t-16 33q-9 9 -18 14zM942 102q31 7 51 15q1 23 -2 42v2q0 1 -1 1q-20 5 -52 10q-4 17 -11 34q23 23 37 39q-11 20 -25 38q-22 -7 -51 -18q-11 12 -27 24q9 30 13 52q-20 12 -41 20
q-3 -4 -5 -5q-14 -16 -29 -35q-2 0 -6 1t-5 1q-18 4 -24 5q-9 32 -15 51q-22 1 -42 -2q-2 0 -4 -1q-6 -24 -9 -52q-15 -3 -32 -10q-1 -1 -2 -1h-1q-23 23 -38 36q-3 -1 -23 -14q-2 -2 -7.5 -5t-8.5 -5q7 -21 19 -50q-13 -13 -24 -26h-5q-29 8 -47 11q-2 -2 -3.5 -6t-2.5 -5
q-11 -20 -15 -30q8 -7 18 -16q11 -8 23 -18q-6 -19 -8 -36q-29 -7 -51 -14q0 -21 2 -42v-3l1 -1q19 -5 52 -9q1 -4 3.5 -10.5t2.5 -7.5t2 -7.5t3 -9.5q-11 -12 -23 -24q-8 -8 -13 -14q10 -21 25 -39q20 6 50 19q11 -13 27 -25q-9 -30 -13 -51q19 -12 41 -21q14 14 34 41
q17 -6 36 -8q7 -30 15 -51q21 -1 42 2q2 0 3 1q5 21 10 52q17 4 34 11q22 -22 39 -36q20 10 38 25q-6 21 -18 50q12 11 24 27q30 -9 52 -13q12 20 20 41q-16 15 -41 34q6 17 8 36zM759 -20q-70 -9 -121 41q-19 18 -30 41t-14 45q-6 51 22 96q23 36 60 54q24 11 45 14
q33 4 67 -8q23 -8 40 -21q49 -37 57 -97t-29 -108.5t-97 -56.5zM376 128h-222q-37 0 -63.5 26.5t-26.5 63.5v524q0 38 26.5 64t63.5 26h524q37 0 63.5 -26t26.5 -64v-236q0 -1 12 -2.5t28.5 -4t23.5 -4.5v273q0 53 -37.5 90.5t-90.5 37.5h-576q-53 0 -90.5 -37.5
t-37.5 -90.5v-576q0 -53 37.5 -90.5t90.5 -37.5h258q-2 7 -4 23.5t-3.5 28.5t-2.5 12z" />
    <glyph glyph-name="uniE60B" unicode="&#xe60b;" 
d="M17 398l188 -192l197 192l-197 193zM943 568v245h-371v-81h-162v-654h162v-123h369v251h-369v-46h-80v492h80v-84h371z" />
    <glyph glyph-name="uniE60C" unicode="&#xe60c;" 
d="M608 832h-128q-40 0 -68 -28t-28 -68t28 -68t68 -28h128q40 0 68 28t28 68t-28 68t-68 28zM608 704h-128q-13 0 -22.5 9.5t-9.5 22.5t9.5 22.5t22.5 9.5h128q13 0 22.5 -9.5t9.5 -22.5t-9.5 -22.5t-22.5 -9.5zM608 512h-128q-40 0 -68 -28t-28 -68t28 -68t68 -28h128
q40 0 68 28t28 68t-28 68t-68 28zM608 384h-128q-13 0 -22.5 9.5t-9.5 22.5t9.5 22.5t22.5 9.5h128q13 0 22.5 -9.5t9.5 -22.5t-9.5 -22.5t-22.5 -9.5zM608 192h-128q-40 0 -68 -28t-28 -68t28 -68t68 -28h128q40 0 68 28t28 68t-28 68t-68 28zM608 64h-128q-13 0 -22.5 9.5
t-9.5 22.5t9.5 22.5t22.5 9.5h128q13 0 22.5 -9.5t9.5 -22.5t-9.5 -22.5t-22.5 -9.5zM256 128q-53 0 -90.5 37.5t-37.5 90.5t37.5 90.5t90.5 37.5h64v64h-64q-80 0 -136 -56t-56 -136t56 -136t136 -56v-64l96 96l-96 96v-64zM832 768h-64v-64h64q53 0 90.5 -37.5t37.5 -90.5
t-37.5 -90.5t-90.5 -37.5v64l-96 -96l96 -96v64q80 0 136 56t56 136t-56 136t-136 56z" />
    <glyph glyph-name="uniE60D" unicode="&#xe60d;" 
d="M824 137l5 4q3 3 4 7.5t-3 26t-14 65.5q-28 116 -129 190t-233 85v117l-265 -204l265 -204v117q93 6 160.5 -8.5t112.5 -62.5q21 -22 46 -61t34 -60q4 -8 10 -10z" />
    <glyph glyph-name="uniE60E" unicode="&#xe60e;" 
d="M316 -8h-127q-6 0 -10 4.5t-4 9.5v757q0 5 4 9.5t10 4.5h644q6 0 10 -4.5t4 -9.5v-408l56 -24v432q0 29 -20.5 49.5t-49.5 20.5h-644q-29 0 -49.5 -20.5t-20.5 -49.5v-757q0 -28 20.5 -49t49.5 -21h127v56zM771 430q0 55 -39 93.5t-93.5 38.5t-93.5 -38.5t-39 -93.5
t39 -93.5t93.5 -38.5t93.5 38.5t39 93.5zM815 253h-25l-137 -278l52 256l-67 67l-66 -67l52 -256l-138 278h-24q-19 0 -33 -3.5t-23 -9t-15.5 -16.5t-10 -19.5t-5 -25.5t-1.5 -27v-31v-185h529v185v31q0 10 -2 27t-5 25.5t-9.5 19.5t-15.5 16.5t-23.5 9t-32.5 3.5zM263 686
h492v-52h-492v52zM263 554h170v-56h-170v56zM263 412h190v-52h-190v52zM263 412z" />
    <glyph glyph-name="uniE60F" unicode="&#xe60f;" 
d="M213 370v0h2h-2zM813 128h96q16 0 27.5 -11t11.5 -28v-96q0 -16 -11 -27.5t-28 -11.5h-96q-16 0 -27.5 11t-11.5 28v39h-18q-40 0 -68.5 28t-28.5 68v154h-96v-193q0 -16 -11 -27.5t-28 -11.5h-403q-16 0 -27.5 11.5t-11.5 27.5v406q0 15 11 27t28 12h192v172h-192
q-17 0 -28 11t-11 27v39q0 16 11 27.5t28 11.5h788q16 0 27.5 -11t11.5 -28v-39q0 -15 -11 -26.5t-28 -11.5h-577v-175h192q16 0 27.5 -11t11.5 -27v-191h96v154q0 40 28.5 68t68.5 28h18v39q0 16 11.5 27.5t27.5 11.5h96q16 0 27.5 -11.5t11.5 -27.5v-96q0 -16 -11 -27.5
t-28 -11.5h-96q-16 0 -27.5 11t-11.5 28v39h-18q-33 0 -55.5 -23t-22.5 -55v-154h96v39q0 16 11.5 27.5t27.5 11.5h96q16 0 27.5 -11t11.5 -28v-96q0 -16 -11 -27.5t-28 -11.5h-96q-16 0 -27.5 11t-11.5 28v37h-96v-154q0 -32 22.5 -55t55.5 -23h18v39q0 17 11.5 28t27.5 11
z" />
    <glyph glyph-name="uniE610" unicode="&#xe610;" 
d="M205 139q6 2 9 10q10 21 34.5 60t46.5 61q45 48 112 62.5t160 8.5v-117l266 204l-266 204v-117q-132 -11 -232.5 -85t-128.5 -190q-11 -44 -14.5 -65.5t-3 -26t4.5 -7.5l5 -4z" />
  </font>
</defs>
</svg>
